Saturday, 7 March 2015

Chitti Babu (1936-1996) - Veena - LP published in India in 1967


Another beautiful LP by Chitti Babu. See here the one we had posted last year.





3 comments:

SOTISE said...

Wonderful, thank you!!!

Adel Decoster said...

Thanks, this one not clipping, see, peak of song are below 0db, well done !!!

foobar2000 1.0.3 / Dynamic Range Meter 1.1.1
log date: 2015-07-26 18:29:26

--------------------------------------------------------------------------------
Analyzed: Chitti Babu / Veena (Indian LP)
--------------------------------------------------------------------------------

DR Peak RMS Duration Track
--------------------------------------------------------------------------------
DR17 -5.90 dB -24.91 dB 21:10 ?-Chitti Babu - 33ESX - Side 1
DR13 -1.64 dB -22.22 dB 18:37 ?-Chitti Babu - 33ESX - Side 2 - 1
DR13 -7.00 dB -22.45 dB 2:47 ?-Chitti Babu - 33ESX - Side 2 - 2
--------------------------------------------------------------------------------

Number of tracks: 3
Official DR value: DR14

Samplerate: 44100 Hz
Channels: 2
Bits per sample: 16
Bitrate: 634 kbps
Codec: FLAC
================================================================================

Tawfiq said...

Very simple explanation: this is a high quality Germany pressing whereas the others you mentioned are LPs manufactured in India and these are universally known for having a lot of surface noises.