Monday, 27 June 2011

Ustad Mohammad Sharif Khan Poonchhwala - Sitar - LP LKDE-20002 (1973) - EMI Pakistan


Ustad Mohammad Sharif Khan Poonchhwala - Sitar
Ustad Shaukat Hussain Khan - Tabla

Side 1:
Raag Sham Kalyan (26:23)


Side 2:
Raag Peelo (14:03)
Raag Chandar Kauns (11:30)



2 comments:

Alexis said...

Wonderful, thank you!

Adel Decoster said...

Thanks again !!!

And this one, not clipping:

foobar2000 1.0.3 / Dynamic Range Meter 1.1.1
log date: 2015-07-27 14:13:01

--------------------------------------------------------------------------------
Analyzed: Mohammed Sharif Khan Poonch Wala / Sitar - Mono Pakistan LP
--------------------------------------------------------------------------------

DR Peak RMS Duration Track
--------------------------------------------------------------------------------
DR11 -1.64 dB -16.01 dB 26:25 01-Raag Sham Kalyan
DR10 -1.47 dB -15.08 dB 14:04 02-Raag Peelo
DR10 -1.50 dB -14.66 dB 11:31 03-Raag Chandar Kauns
--------------------------------------------------------------------------------

Number of tracks: 3
Official DR value: DR10

Samplerate: 44100 Hz
Channels: 2
Bitrate: 320 kbps
Codec: MP3
================================================================================